<?xml version="1.0" standalone="no"?>
<!DOCTYPE svg PUBLIC "-//W3C//DTD SVG 1.1//EN" "http://www.w3.org/Graphics/SVG/1.1/DTD/svg11.dtd" >
<svg xmlns="http://www.w3.org/2000/svg" xmlns:xlink="http://www.w3.org/1999/xlink" version="1.1">
<metadata>
Created by FontForge 20190801 at Tue Apr 12 01:23:17 2011
 By www-data
Copyright (c) Phanlop Thongsuk, 1995-2011. All rights reserved.
</metadata>
<defs>
<font id="PSLKandaModernExtraPro" horiz-adv-x="0" >
  <font-face 
    font-family="PSLKandaModernExtraPro"
    font-weight="400"
    font-stretch="normal"
    units-per-em="1000"
    panose-1="2 0 5 6 0 0 0 2 0 4"
    ascent="800"
    descent="-200"
    x-height="341"
    cap-height="471"
    bbox="-467 -305 732 781"
    underline-thickness="60"
    underline-position="-90"
    unicode-range="U+0020-F880"
  />
<missing-glyph horiz-adv-x="781" 
d="M49 0v781h683v-781h-683zM684 49v683h-586v-683h586z" />
    <glyph glyph-name=".notdef" horiz-adv-x="781" 
d="M49 0v781h683v-781h-683zM684 49v683h-586v-683h586z" />
    <glyph glyph-name=".null" 
 />
    <glyph glyph-name="nonmarkingreturn" horiz-adv-x="333" 
 />
    <glyph glyph-name="space" unicode=" " horiz-adv-x="250" 
 />
    <glyph glyph-name="space" unicode="&#xa0;" horiz-adv-x="250" 
 />
    <glyph glyph-name="exclam" unicode="!" horiz-adv-x="191" 
d="M141 344l-21 -204h-47l-22 204v127h90v-127zM148 48q0 -23 -14.5 -38t-37.5 -15t-37.5 15t-14.5 38q0 22 15 37t37 15t37 -15t15 -37z" />
    <glyph glyph-name="quotedbl" unicode="&#x22;" horiz-adv-x="301" 
d="M246 285h-75v186h75v-186zM130 285h-75v186h75v-186z" />
    <glyph glyph-name="numbersign" unicode="#" horiz-adv-x="375" 
d="M354 269h-64l-10 -76h55v-56h-63l-20 -137h-62l20 137h-64l-20 -137h-62l19 137h-61v56h70l11 76h-61v56h68l19 137h63l-20 -137h64l19 137h63l-20 -137h56v-56zM229 269h-65l-10 -76h64z" />
    <glyph glyph-name="dollar" unicode="$" horiz-adv-x="375" 
d="M364 138q0 -70 -43.5 -108t-113.5 -42v-51h-36v51q-73 3 -117 44.5t-43 115.5h83q0 -88 77 -94v151q-33 9 -55 18.5t-46 26t-36.5 42t-12.5 59.5q0 60 43.5 95t106.5 37v51h36v-51q64 -1 104.5 -35.5t40.5 -99.5h-83q-3 68 -62 69v-131q74 -19 115.5 -51t41.5 -97z
M171 295v122q-67 -2 -67 -61q0 -45 67 -61zM280 128q0 30 -19.5 45.5t-53.5 24.5v-144q73 7 73 74z" />
    <glyph glyph-name="percent" unicode="%" horiz-adv-x="668" 
d="M614 124q0 -59 -27.5 -96t-86.5 -37t-87 37t-28 96q0 58 28.5 95.5t86.5 37.5q57 0 85.5 -37.5t28.5 -95.5zM489 478l-259 -494h-61l260 494h60zM283 338q0 -59 -28 -96t-87 -37t-86.5 37t-27.5 96q0 58 28.5 95.5t85.5 37.5q58 0 86.5 -37.5t28.5 -95.5zM546 124
q0 83 -47 83q-46 0 -46 -83t46 -83q47 0 47 83zM215 338q0 83 -47 83q-46 0 -46 -83t46 -83q47 0 47 83z" />
    <glyph glyph-name="ampersand" unicode="&#x26;" horiz-adv-x="436" 
d="M450 0l-103 1l-41 48q-51 -58 -132 -58q-68 0 -110.5 38t-42.5 104q0 82 106 135q-45 56 -45 100q0 51 34 82.5t85 31.5t86.5 -29.5t35.5 -84.5q0 -74 -83 -119l66 -78q7 26 11 58h74q-7 -75 -36 -116zM247 370q0 21 -12 35t-32 14q-19 0 -32.5 -13t-13.5 -34
q0 -10 4.5 -21t9 -17.5t14 -17.5t12.5 -16q17 12 25.5 19t16.5 21t8 30zM260 105l-88 108q-1 -1 -11.5 -6.5t-14 -7.5t-12.5 -8t-12.5 -11t-8.5 -12.5t-7 -16.5t-2 -20q0 -34 20 -54t52 -20q23 0 42 9.5t25.5 17t16.5 21.5z" />
    <glyph glyph-name="quotesingle" unicode="'" horiz-adv-x="191" 
d="M133 285h-75v186h75v-186z" />
    <glyph glyph-name="parenleft" unicode="(" horiz-adv-x="191" 
d="M200 -126l-71 1q-97 152 -97 303q0 159 97 304h70q-83 -148 -83 -304q0 -163 84 -304z" />
    <glyph glyph-name="parenright" unicode=")" horiz-adv-x="191" 
d="M159 178q0 -158 -98 -304h-68q83 148 83 304q0 161 -84 304h69q98 -151 98 -304z" />
    <glyph glyph-name="asterisk" unicode="*" horiz-adv-x="252" 
d="M242 376l-75 -25l46 -57l-41 -29l-47 60l-43 -60l-43 29l45 57l-72 25l17 48l71 -27v74h53v-74l70 27z" />
    <glyph glyph-name="plus" unicode="+" horiz-adv-x="374" 
d="M354 134h-135v-135h-65v135h-134v65h134v134h65v-134h135v-65z" />
    <glyph glyph-name="comma" unicode="," horiz-adv-x="186" 
d="M152 36q0 -65 -71 -115l-36 15q44 29 50 59q-24 -1 -40.5 14t-16.5 38q0 22 15.5 38t39.5 16q27 0 43 -17.5t16 -47.5z" />
    <glyph glyph-name="hyphen" unicode="-" horiz-adv-x="265" 
d="M232 144h-200v71h200v-71z" />
    <glyph glyph-name="period" unicode="." horiz-adv-x="186" 
d="M146 48q0 -22 -15.5 -37.5t-37.5 -15.5t-37.5 15.5t-15.5 37.5t15.5 37.5t37.5 15.5t37.5 -15.5t15.5 -37.5z" />
    <glyph glyph-name="slash" unicode="/" horiz-adv-x="240" 
d="M257 482l-193 -493h-81l193 493h81z" />
    <glyph glyph-name="zero" unicode="0" horiz-adv-x="374" 
d="M351 231q0 -44 -7 -82.5t-23.5 -76t-51 -59.5t-82.5 -22t-82 22t-50.5 59.5t-23.5 76t-7 82.5t7 82.5t23.5 76t50.5 59.5t82 22t82.5 -22t51 -59.5t23.5 -76t7 -82.5zM268 231q0 171 -81 171q-80 0 -80 -171t80 -171q81 0 81 171z" />
    <glyph glyph-name="one" unicode="1" horiz-adv-x="374" 
d="M239 0h-91v320h-113v66q118 0 136 76h68v-462z" />
    <glyph glyph-name="two" unicode="2" horiz-adv-x="374" 
d="M350 327q0 -85 -105 -155q-9 -6 -30 -19.5t-30.5 -20t-23.5 -17.5t-22 -21t-13 -20h223v-74h-323q0 109 103 179q8 6 36 23.5t39.5 26.5t29.5 25.5t25.5 33.5t7.5 37q1 30 -16 53.5t-58 23.5t-59.5 -28t-15.5 -66h-84q-2 74 40.5 118.5t120.5 44.5q81 0 118 -43t37 -101z
" />
    <glyph glyph-name="three" unicode="3" horiz-adv-x="374" 
d="M354 134q0 -64 -48.5 -103.5t-118.5 -39.5q-79 0 -123 42t-44 104h84q1 -33 22 -55t61 -22q37 0 60.5 20.5t23.5 57.5q0 32 -18.5 49t-42.5 21t-60 2v64q45 -2 74 14t29 53q0 27 -19 44t-49 17q-35 0 -54 -22.5t-19 -50.5h-83q0 59 43.5 100.5t113.5 41.5q60 0 105 -33
t45 -92q0 -71 -61 -97q35 -9 57 -40.5t22 -74.5z" />
    <glyph glyph-name="four" unicode="4" horiz-adv-x="374" 
d="M353 108h-58v-108h-81v108h-198v78l200 276h79v-288h58v-66zM214 174v187l-129 -187h129z" />
    <glyph glyph-name="five" unicode="5" horiz-adv-x="374" 
d="M353 157q0 -64 -42 -115t-122 -51q-72 0 -118 37.5t-48 108.5h83q8 -77 81 -77q82 0 82 96q0 39 -21.5 65t-62.5 26q-56 0 -71 -42h-83l51 257h246v-74h-184l-19 -101q32 27 79 27q69 0 109 -44t40 -113z" />
    <glyph glyph-name="six" unicode="6" horiz-adv-x="374" 
d="M353 149q0 -68 -44 -113t-114 -45q-50 0 -85 18t-53.5 52.5t-26.5 75.5t-8 95q0 60 16 111.5t58 89.5t105 38q58 0 99 -36.5t44 -95.5h-83q-3 30 -20 46.5t-44 16.5t-45 -13t-27.5 -37t-13 -44.5t-5.5 -47.5q13 22 40 34.5t57 12.5q68 0 109 -44.5t41 -113.5zM269 151
q0 38 -20 63.5t-57 25.5q-38 0 -58.5 -25t-20.5 -64q0 -38 20.5 -64.5t58.5 -26.5q37 0 57 26.5t20 64.5z" />
    <glyph glyph-name="seven" unicode="7" horiz-adv-x="374" 
d="M347 395q-156 -174 -172 -395h-91q7 105 54 205t120 183h-235v74h324v-67z" />
    <glyph glyph-name="eight" unicode="8" horiz-adv-x="374" 
d="M354 138q0 -67 -47 -107t-120 -40t-120 40t-47 107q0 41 20.5 70.5t56.5 41.5q-57 30 -57 93q0 60 38.5 94t108.5 34q71 0 109.5 -34t38.5 -94q0 -63 -57 -93q35 -12 55.5 -41.5t20.5 -70.5zM256 339q0 31 -19.5 48.5t-49.5 17.5q-29 0 -48.5 -17.5t-19.5 -48.5
q0 -29 19 -46t49 -17q31 0 50 17t19 46zM271 138q0 35 -23 55t-61 20q-37 0 -60 -20t-23 -55q0 -38 23 -59.5t60 -21.5q38 0 61 21.5t23 59.5z" />
    <glyph glyph-name="nine" unicode="9" horiz-adv-x="374" 
d="M353 230q0 -60 -16 -111.5t-58 -89.5t-105 -38q-58 0 -99 36.5t-44 95.5h83q3 -30 19.5 -46.5t44.5 -16.5q26 0 44.5 13t27.5 36.5t12.5 43.5t5.5 47q-32 -45 -96 -45q-67 0 -108.5 43t-41.5 114q0 69 44 114t119 45q93 0 130.5 -64t37.5 -177zM262 313q0 38 -20.5 63.5
t-59.5 25.5q-38 0 -57 -25.5t-19 -63.5q0 -39 19.5 -65.5t56.5 -26.5q39 0 59.5 26.5t20.5 65.5z" />
    <glyph glyph-name="colon" unicode=":" horiz-adv-x="186" 
d="M146 272q0 -22 -15.5 -37.5t-37.5 -15.5t-37.5 15.5t-15.5 37.5t15.5 37.5t37.5 15.5t37.5 -15.5t15.5 -37.5zM146 48q0 -22 -15.5 -37.5t-37.5 -15.5t-37.5 15.5t-15.5 37.5t15.5 37.5t37.5 15.5t37.5 -15.5t15.5 -37.5z" />
    <glyph glyph-name="semicolon" unicode=";" horiz-adv-x="186" 
d="M146 272q0 -22 -15.5 -37.5t-37.5 -15.5t-37.5 15.5t-15.5 37.5t15.5 37.5t37.5 15.5t37.5 -15.5t15.5 -37.5zM152 36q0 -65 -71 -115l-36 15q44 29 50 59q-24 -1 -40.5 14t-16.5 38q0 22 15.5 38t39.5 16q27 0 43 -17.5t16 -47.5z" />
    <glyph glyph-name="less" unicode="&#x3c;" horiz-adv-x="404" 
d="M374 -5l-344 146v52l344 146v-74l-240 -98l240 -98v-74z" />
    <glyph glyph-name="equal" unicode="=" horiz-adv-x="374" 
d="M354 199h-334v65h334v-65zM354 69h-334v65h334v-65z" />
    <glyph glyph-name="greater" unicode="&#x3e;" horiz-adv-x="404" 
d="M374 141l-344 -146v74l240 98l-240 98v74l344 -146v-52z" />
    <glyph glyph-name="question" unicode="?" horiz-adv-x="375" 
d="M343 347q0 -28 -10 -50.5t-20.5 -33.5t-28.5 -26q-22 -18 -31 -26.5t-18.5 -28.5t-8.5 -46h-79q-1 48 12 76t41 53q52 42 52 79q0 33 -17 51t-44 18q-37 0 -56 -24.5t-19 -62.5h-84q0 69 44.5 112.5t118.5 43.5q64 0 106 -36t42 -99zM239 48q0 -23 -14.5 -38t-37.5 -15
t-37.5 15t-14.5 38q0 22 14.5 37t37.5 15t37.5 -15t14.5 -37z" />
    <glyph glyph-name="at" unicode="@" horiz-adv-x="536" 
d="M504 288q0 -90 -54.5 -144t-105.5 -54q-38 0 -41 38q-37 -37 -73 -37q-42 0 -71.5 31.5t-29.5 75.5q0 66 42.5 119t106.5 53q47 0 73 -41l10 31h54l-49 -176q-10 -34 -3 -39q3 -1 6 -1q31 0 56.5 40.5t25.5 95.5q0 69 -49.5 111t-122.5 42q-83 0 -138 -55t-55 -136
q0 -100 55.5 -152t142.5 -52q90 0 147 65h55q-71 -114 -204 -114q-108 0 -179 66.5t-71 187.5q0 104 72 171.5t175 67.5q92 0 158.5 -55t66.5 -139zM329 260q0 21 -14.5 37t-33.5 16q-37 0 -62.5 -35.5t-25.5 -73.5q0 -25 13.5 -40.5t35.5 -15.5q35 0 61 37t26 75z" />
    <glyph glyph-name="A" unicode="A" horiz-adv-x="448" 
d="M455 0h-97l-44 123h-182l-44 -123h-95l184 471h94zM289 192l-66 185l-66 -185h132z" />
    <glyph glyph-name="B" unicode="B" horiz-adv-x="473" 
d="M448 133q0 -60 -44 -96.5t-133 -36.5h-221v471h233q68 0 106 -30t38 -89q0 -68 -60 -98q39 -11 60 -42.5t21 -78.5zM337 337q0 60 -66 60h-130v-120h130q29 0 47.5 16t18.5 44zM358 144q0 32 -19.5 49t-55.5 17h-142v-136h142q36 0 55.5 18t19.5 52z" />
    <glyph glyph-name="C" unicode="C" horiz-adv-x="485" 
d="M459 185q4 -92 -54.5 -144t-149.5 -52q-104 0 -167 71t-63 176q0 104 63 175t167 71q83 0 140 -44t64 -122h-90q-23 92 -114 92q-69 0 -104 -50t-35 -122q0 -73 34.5 -123t104.5 -50q53 0 84.5 32.5t33.5 89.5h86z" />
    <glyph glyph-name="D" unicode="D" horiz-adv-x="485" 
d="M461 236q0 -104 -52.5 -170t-158.5 -66h-200v471h200q106 0 158.5 -65.5t52.5 -169.5zM371 236q0 77 -33 119t-120 42h-77v-323h77q88 0 120.5 42.5t32.5 119.5z" />
    <glyph glyph-name="E" unicode="E" horiz-adv-x="424" 
d="M402 0h-352v471h347v-78h-256v-113h237v-74h-237v-128h261v-78z" />
    <glyph glyph-name="F" unicode="F" horiz-adv-x="399" 
d="M384 393h-243v-113h213v-74h-213v-206h-91v471h334v-78z" />
    <glyph glyph-name="G" unicode="G" horiz-adv-x="509" 
d="M469 0h-59l-12 49q-57 -60 -140 -60q-104 0 -167 71t-63 176q0 104 63 175t167 71q83 0 140 -42.5t66 -123.5h-88q-6 44 -39.5 68t-78.5 24q-69 0 -104 -50t-35 -122q0 -73 34.5 -122.5t104.5 -50.5q60 0 93 31.5t35 87.5h-125v70h208v-252z" />
    <glyph glyph-name="H" unicode="H" horiz-adv-x="485" 
d="M436 0h-91v209h-206v-209h-91v471h91v-184h206v184h91v-471z" />
    <glyph glyph-name="I" unicode="I" horiz-adv-x="191" 
d="M141 0h-91v471h91v-471zM141 0v471h-91v-471h91zM141 0h-91v471h91v-471z" />
    <glyph glyph-name="J" unicode="J" horiz-adv-x="362" 
d="M312 153q0 -35 -6 -61t-21.5 -51t-49 -38.5t-82.5 -13.5q-73 0 -108.5 41.5t-35.5 110.5v29h90v-28q0 -40 13.5 -59.5t47.5 -19.5q36 0 49 20.5t13 64.5v323h90v-318z" />
    <glyph glyph-name="K" unicode="K" horiz-adv-x="460" 
d="M469 0h-113l-152 220l-63 -62v-158h-91v471h91v-204l204 204h113l-193 -189z" />
    <glyph glyph-name="L" unicode="L" horiz-adv-x="387" 
d="M380 0h-330v471h91v-393h239v-78z" />
    <glyph glyph-name="M" unicode="M" horiz-adv-x="595" 
d="M546 0h-87v342l-125 -342h-74l-125 344v-344h-86v471h123l127 -356l125 356h122v-471z" />
    <glyph glyph-name="N" unicode="N" horiz-adv-x="485" 
d="M437 0l-93 1l-211 334v-335h-86v471l92 -1l211 -335v336h87v-471z" />
    <glyph glyph-name="O" unicode="O" horiz-adv-x="510" 
d="M485 236q0 -105 -63 -176t-167 -71t-167 71t-63 176q0 104 63 175t167 71t167 -71t63 -175zM394 236q0 72 -35 122t-104 50t-104 -50t-35 -122q0 -73 34.5 -123t104.5 -50t104.5 50t34.5 123z" />
    <glyph glyph-name="P" unicode="P" horiz-adv-x="448" 
d="M426 324q0 -26 -6.5 -48.5t-23 -46t-51 -37.5t-83.5 -14h-121v-178h-91v471h212q49 0 83.5 -14t51 -38t23 -46.5t6.5 -48.5zM336 324q0 73 -77 73h-118v-145h116q31 0 55 17t24 55z" />
    <glyph glyph-name="Q" unicode="Q" horiz-adv-x="510" 
d="M485 237q0 -114 -65 -178l62 -51l-47 -51l-70 60q-50 -27 -110 -27q-104 0 -167 71t-63 176q0 103 63 174t167 71t167 -71t63 -174zM394 237q0 71 -35 121t-104 50t-104 -50t-35 -121q0 -73 34.5 -123t104.5 -50q25 0 45 8l-46 40l46 50l56 -49q38 46 38 124z" />
    <glyph glyph-name="R" unicode="R" horiz-adv-x="473" 
d="M464 0h-102q-14 23 -14 73q0 64 -18.5 91t-71.5 27h-117v-191h-91v471h229q78 0 119 -33.5t41 -95.5q0 -88 -68 -115q60 -18 60 -100q0 -94 33 -127zM348 331q0 38 -20.5 52t-56.5 14h-130v-136h131q76 0 76 70z" />
    <glyph glyph-name="S" unicode="S" horiz-adv-x="436" 
d="M414 139q0 -75 -56 -112.5t-136 -37.5q-88 0 -143.5 43t-56.5 130h90q0 -52 32 -75.5t84 -23.5q48 0 71.5 19t23.5 47q0 39 -36 53q-14 5 -140 38q-107 28 -107 122q0 67 52.5 103.5t123.5 36.5q79 0 132 -41t53 -114h-91q-5 81 -97 81q-34 0 -58.5 -13t-24.5 -43
q0 -42 53 -56q1 0 61.5 -15.5t74.5 -19.5q46 -14 70.5 -48.5t24.5 -73.5z" />
    <glyph glyph-name="T" unicode="T" horiz-adv-x="399" 
d="M395 393h-150v-393h-91v393h-149v78h390v-78z" />
    <glyph glyph-name="U" unicode="U" horiz-adv-x="485" 
d="M440 171q0 -89 -53.5 -135.5t-144.5 -46.5t-144 46.5t-53 135.5v300h90v-273q0 -30 2.5 -47.5t11.5 -39.5t32.5 -33t60.5 -11t60.5 11t32.5 33t11.5 39.5t2.5 47.5v273h91v-300z" />
    <glyph glyph-name="V" unicode="V" horiz-adv-x="411" 
d="M417 471l-164 -471h-98l-160 471h94l117 -359l118 359h93z" />
    <glyph glyph-name="W" unicode="W" horiz-adv-x="631" 
d="M628 471l-132 -471h-90l-92 345l-94 -345h-91l-126 471h92l83 -344l92 344h91l89 -344l86 344h92z" />
    <glyph glyph-name="X" unicode="X" horiz-adv-x="436" 
d="M442 0h-111l-115 174l-120 -174h-102l171 244l-159 227h107l105 -161l110 160h101l-158 -226zM442 0l-171 244l158 226h-101l-110 -160l-105 161h-107l159 -227l-171 -244h102l120 174l115 -174h111zM442 0h-111l-115 174l-120 -174h-102l171 244l-159 227h107l105 -161
l110 160h101l-158 -226z" />
    <glyph glyph-name="Y" unicode="Y" horiz-adv-x="436" 
d="M443 470l-180 -285v-185h-90v185l-180 286h104l123 -205l121 204h102z" />
    <glyph glyph-name="Z" unicode="Z" horiz-adv-x="424" 
d="M409 0h-394v72l270 321h-249v78h367v-66l-270 -327h276v-78z" />
    <glyph glyph-name="bracketleft" unicode="[" horiz-adv-x="203" 
d="M203 -126h-155v608h155v-66h-76v-476h76v-66z" />
    <glyph glyph-name="backslash" unicode="\" horiz-adv-x="240" 
d="M257 -11h-81l-193 493h81z" />
    <glyph glyph-name="bracketright" unicode="]" horiz-adv-x="203" 
d="M156 -126h-155v66h76v476h-76v66h155v-608z" />
    <glyph glyph-name="asciicircum" unicode="^" horiz-adv-x="404" 
d="M352 221h-78l-72 151l-72 -151h-78l123 241h54z" />
    <glyph glyph-name="underscore" unicode="_" horiz-adv-x="374" 
d="M374 -103h-374v53h374v-53z" />
    <glyph glyph-name="grave" unicode="`" horiz-adv-x="167" 
d="M140 388h-63l-103 94h100z" />
    <glyph glyph-name="a" unicode="a" horiz-adv-x="375" 
d="M370 0q-27 -9 -52 -9q-49 0 -60 36q-45 -36 -116 -36q-50 0 -85.5 26.5t-35.5 74.5q0 31 11 52t33.5 32t40.5 15.5t49 8.5q11 2 30 3.5t28.5 3t21 5.5t16 11.5t4.5 19.5q0 41 -67 41t-71 -52h-83q6 118 159 118q57 0 98.5 -25t41.5 -76v-171q0 -12 2.5 -16.5t11.5 -4.5
q11 0 23 1v-58zM250 116v48q-10 -5 -24 -8t-34.5 -5.5t-28.5 -3.5q-28 -4 -43.5 -15t-15.5 -36q0 -39 66 -39q29 0 54.5 14.5t25.5 44.5z" />
    <glyph glyph-name="b" unicode="b" horiz-adv-x="411" 
d="M387 170q0 -75 -39 -127t-112 -52q-83 0 -115 45v-36h-79v471h83v-165q35 46 99 46q79 0 121 -51.5t42 -130.5zM304 171q0 48 -23.5 81.5t-66.5 33.5q-45 0 -68.5 -31t-23.5 -84q0 -50 24.5 -82t67.5 -32q46 0 68 33.5t22 80.5z" />
    <glyph glyph-name="c" unicode="c" horiz-adv-x="375" 
d="M354 133q-23 -142 -161 -142q-80 0 -125 49t-45 127q0 81 44.5 132t127.5 51q65 0 109 -32t49 -96h-83q-9 62 -74 62q-37 0 -63.5 -25.5t-26.5 -91.5q0 -46 21.5 -78t65.5 -32q31 0 51.5 20t25.5 56h84z" />
    <glyph glyph-name="d" unicode="d" horiz-adv-x="411" 
d="M369 0h-79v37q-30 -46 -103 -46q-80 0 -122 51t-42 132q0 87 44.5 132.5t107.5 45.5q77 0 111 -48v167h83v-471zM288 172q0 53 -24 83.5t-66 30.5q-47 0 -69.5 -34.5t-22.5 -83.5q0 -46 23 -78.5t68 -32.5t68 34t23 81z" />
    <glyph glyph-name="e" unicode="e" horiz-adv-x="375" 
d="M357 148h-251q1 -39 24 -65t64 -26q61 0 80 55h80q-14 -58 -57 -89.5t-103 -31.5q-80 0 -125.5 49.5t-45.5 129.5q0 75 46.5 127.5t122.5 52.5q81 0 128 -60.5t37 -141.5zM274 204q-4 34 -26 57t-56 23q-36 0 -59.5 -22.5t-26.5 -57.5h168z" />
    <glyph glyph-name="f" unicode="f" horiz-adv-x="216" 
d="M217 399q-18 6 -39 6q-33 0 -33 -31v-31h64v-63h-64v-280h-83v280h-56v63h56v25q0 61 26.5 82t71.5 21q38 0 57 -5v-67z" />
    <glyph glyph-name="g" unicode="g" horiz-adv-x="399" 
d="M363 19q0 -154 -172 -154q-61 0 -106 26.5t-50 85.5h82q10 -49 79 -49q86 0 86 82v44q-36 -56 -102 -56q-79 0 -118 50.5t-39 130.5q0 71 43.5 121t115.5 50q66 0 98 -45v36h83v-322zM280 177q0 46 -22 76.5t-66 30.5t-65 -33.5t-21 -79.5q0 -44 21.5 -75.5t64.5 -31.5
q45 0 66.5 33t21.5 80z" />
    <glyph glyph-name="h" unicode="h" horiz-adv-x="387" 
d="M347 0h-83v214q0 38 -15 55t-48 17q-35 0 -56.5 -24t-21.5 -60v-202h-83v471h83v-166q34 47 99 47q58 0 91.5 -30t33.5 -88v-234z" />
    <glyph glyph-name="i" unicode="i" horiz-adv-x="167" 
d="M125 393h-83v78h83v-78zM125 0h-83v343h83v-343z" />
    <glyph glyph-name="j" unicode="j" horiz-adv-x="167" 
d="M125 393h-83v78h83v-78zM125 -26q0 -55 -24 -82t-78 -27q-10 0 -38 2v68q19 -4 30 -4q17 0 22 10.5t5 35.5v366h83v-369z" />
    <glyph glyph-name="k" unicode="k" horiz-adv-x="362" 
d="M370 0h-102l-102 162l-41 -39v-123h-83v471h83v-257l130 129h104l-136 -127z" />
    <glyph glyph-name="l" unicode="l" horiz-adv-x="167" 
d="M125 0h-83v471h83v-471z" />
    <glyph glyph-name="m" unicode="m" horiz-adv-x="582" 
d="M543 0h-84v198q0 31 -2.5 46t-15.5 27.5t-40 12.5q-68 0 -68 -85v-199h-84v218q0 34 -12.5 50t-43.5 16q-29 0 -49.5 -22t-20.5 -60v-202h-83v341h79v-40q36 49 103 49q71 0 96 -52q42 52 106 52q119 0 119 -115v-235z" />
    <glyph glyph-name="n" unicode="n" horiz-adv-x="387" 
d="M347 0h-83v213q0 37 -15 54t-48 17q-35 0 -56.5 -24t-21.5 -60v-200h-83v341h79l-1 -44q35 53 104 53q58 0 91.5 -30t33.5 -87v-233z" />
    <glyph glyph-name="o" unicode="o" horiz-adv-x="399" 
d="M376 171q0 -80 -47 -130t-129 -50t-129 50t-47 130t46.5 129.5t129.5 49.5t129.5 -49.5t46.5 -129.5zM293 171q0 46 -23.5 79.5t-69.5 33.5t-69.5 -33.5t-23.5 -79.5q0 -47 23.5 -80.5t69.5 -33.5t69.5 33.5t23.5 80.5z" />
    <glyph glyph-name="p" unicode="p" horiz-adv-x="411" 
d="M387 168q0 -75 -39 -127t-112 -52q-75 0 -111 46v-161h-83v467h79v-36q32 45 103 45q79 0 121 -51.5t42 -130.5zM304 169q0 48 -23.5 81.5t-66.5 33.5q-45 0 -68.5 -31t-23.5 -84q0 -50 24.5 -82t67.5 -32q46 0 68 33.5t22 80.5z" />
    <glyph glyph-name="q" unicode="q" horiz-adv-x="411" 
d="M369 -126h-83v161q-36 -46 -112 -46q-73 0 -112 52t-39 127q0 79 42 130.5t122 51.5q70 0 103 -46v37h79v-467zM288 169q0 54 -23.5 84.5t-67.5 30.5q-43 0 -67 -34t-24 -81t22.5 -80.5t68.5 -33.5t68.5 30.5t22.5 83.5z" />
    <glyph glyph-name="r" unicode="r" horiz-adv-x="240" 
d="M248 270q-16 3 -37 3q-38 0 -63 -29.5t-25 -81.5v-162h-83v341h78v-50q12 24 39.5 41.5t57.5 17.5q11 0 33 -2v-78z" />
    <glyph glyph-name="s" unicode="s" horiz-adv-x="351" 
d="M333 103q0 -57 -47 -84.5t-110 -27.5q-69 0 -111.5 31.5t-43.5 92.5h83q5 -58 74 -58q18 0 31.5 2t27 11.5t12.5 26.5q0 8 -3.5 14t-10 10.5t-13 7.5t-17.5 6t-19.5 4.5t-22.5 4t-22 4.5q-53 11 -83 33t-30 70q0 51 44.5 75t102.5 24q59 0 99.5 -26.5t46.5 -83.5h-85
q-9 44 -62 44q-25 0 -43.5 -7.5t-18.5 -22.5q0 -7 3 -13t9.5 -10.5t12.5 -7.5t17.5 -6t19.5 -4.5t22.5 -4t22.5 -4.5q53 -11 83.5 -33t30.5 -68z" />
    <glyph glyph-name="t" unicode="t" horiz-adv-x="228" 
d="M213 1q-40 -4 -53 -4q-58 0 -78 21t-20 68v194h-57v63h57v101h83v-101h68v-63h-68v-175q0 -16 1.5 -23.5t9 -13t22.5 -5.5q20 0 35 4v-66z" />
    <glyph glyph-name="u" unicode="u" horiz-adv-x="387" 
d="M347 0h-82v37q-15 -21 -41 -33.5t-53 -12.5q-68 0 -99.5 33.5t-31.5 101.5v215h83v-208q0 -76 61 -76q80 0 80 87v197h83v-341z" />
    <glyph glyph-name="v" unicode="v" horiz-adv-x="351" 
d="M347 341l-126 -341h-90l-127 341h91l84 -250l81 250h87z" />
    <glyph glyph-name="w" unicode="w" horiz-adv-x="521" 
d="M515 341l-110 -341h-83l-61 237l-61 -237h-85l-108 341h88l64 -239l62 239h82l60 -239l66 239h86z" />
    <glyph glyph-name="x" unicode="x" horiz-adv-x="362" 
d="M364 0l-101 2l-84 119l-83 -119l-97 -2l132 180l-121 161l99 -2l71 -99l72 99l96 1l-119 -157z" />
    <glyph glyph-name="y" unicode="y" horiz-adv-x="351" 
d="M350 341l-135 -358q-12 -32 -19 -46.5t-21.5 -35t-35 -28.5t-49.5 -8q-28 0 -56 4v71q32 -6 40 -6q23 0 32.5 10.5t16.5 33.5l8 25l-131 338h91l87 -244l84 244h88z" />
    <glyph glyph-name="z" unicode="z" horiz-adv-x="338" 
d="M323 0h-308v58l183 218h-170v65h285v-57l-190 -219h200v-65z" />
    <glyph glyph-name="braceleft" unicode="{" horiz-adv-x="203" 
d="M212 -126h-64q-28 0 -58.5 25t-30.5 68v129q0 27 -19.5 37.5t-42.5 10.5v68q23 0 42.5 10t19.5 33v134q0 43 30.5 68t58.5 25h64v-66h-40q-33 0 -33 -42v-127q0 -51 -52 -68q52 -14 52 -74v-122q0 -43 33 -43h40v-66z" />
    <glyph glyph-name="bar" unicode="|" horiz-adv-x="155" 
d="M115 -11h-75v493h75v-493z" />
    <glyph glyph-name="braceright" unicode="}" horiz-adv-x="203" 
d="M206 144q-22 0 -42 -9.5t-20 -33.5v-134q0 -43 -30.5 -68t-58.5 -25h-64v66h41q33 0 33 43v126q0 50 51 69q-51 14 -51 73v123q0 42 -33 42h-41v66h64q28 0 58.5 -25t30.5 -68v-129q0 -26 20 -37t42 -11v-68z" />
    <glyph glyph-name="asciitilde" unicode="~" horiz-adv-x="404" 
d="M359 169q-42 -53 -87 -53q-25 0 -70 19.5t-73 19.5q-29 0 -56 -44l-27 56q30 52 86 52q28 0 77 -19.5t64 -19.5q8 0 14.5 2t14 8.5t10.5 9t11.5 12.5t9.5 11z" />
    <glyph glyph-name="cent" unicode="&#xa2;" horiz-adv-x="370" 
 />
    <glyph glyph-name="sterling" unicode="&#xa3;" horiz-adv-x="417" 
 />
    <glyph glyph-name="currency" unicode="&#xa4;" horiz-adv-x="410" 
d="M206 356q-46 0 -78 -33q-32 -37 -32 -78q0 -46 31 -80q31 -33 79 -33q46 0 77 33q31 31 31 80q0 46 -31 78.5t-77 32.5zM4 80l72 71q-30 41 -30 94q0 56 30 92l-72 73l37 35l71 -71q40 29 94 29q58 0 92 -29l73 71l35 -35l-71 -73q29 -40 29 -92q0 -54 -29 -94l71 -71
l-35 -37l-73 72q-15 -12 -41 -21q-25 -9 -51 -9q-54 0 -94 30l-71 -72z" />
    <glyph glyph-name="yen" unicode="&#xa5;" horiz-adv-x="509" 
 />
    <glyph glyph-name="copyright" unicode="&#xa9;" horiz-adv-x="554" 
d="M524 236q0 -103 -72 -175t-175 -72t-175 72t-72 175q0 102 72 174t175 72t175 -72t72 -174zM481 236q0 87 -58 147t-145 60q-88 0 -146.5 -59.5t-58.5 -147.5q0 -87 59 -147t146 -60q86 0 144.5 60.5t58.5 146.5zM406 202q2 -56 -33.5 -87.5t-91.5 -31.5q-63 0 -102 43.5
t-39 107.5q0 63 38.5 106.5t102.5 43.5q50 0 85.5 -27t39.5 -74h-55q-15 56 -70 56q-43 0 -64 -30.5t-21 -74.5q0 -45 21 -75.5t64 -30.5q32 0 51 20t20 54h54z" />
    <glyph glyph-name="guillemotleft" unicode="&#xab;" horiz-adv-x="319" 
d="M280 61l-111 83v71l111 83v-73l-62 -46l62 -45v-73zM144 61l-111 83v71l111 83v-73l-60 -46l60 -45v-73z" />
    <glyph glyph-name="logicalnot" unicode="&#xac;" horiz-adv-x="374" 
d="M294 58v87h-264v44h304v-131h-40z" />
    <glyph glyph-name="minus" unicode="&#xad;" horiz-adv-x="374" 
d="M354 134h-334v65h334v-65z" />
    <glyph glyph-name="registered" unicode="&#xae;" horiz-adv-x="554" 
d="M524 236q0 -103 -72 -175t-175 -72t-175 72t-72 175q0 102 72 174t175 72t175 -72t72 -174zM482 236q0 87 -58.5 147t-144.5 60q-88 0 -147 -60t-59 -147t59.5 -147.5t146.5 -60.5q86 0 144.5 61t58.5 147zM409 97h-59q-9 13 -9 44q0 37 -10 52.5t-41 15.5h-68v-112h-53
v274h132q93 0 93 -75q0 -49 -38 -67q35 -12 35 -58q0 -55 18 -74zM341 290q0 38 -43 38h-76v-79h76q43 0 43 41z" />
    <glyph glyph-name="degree" unicode="&#xb0;" horiz-adv-x="264" 
d="M130 447q42 0 71 -29t29 -70t-29 -70t-71 -29q-40 0 -69 28.5t-29 70.5q0 40 28.5 69.5t69.5 29.5zM130 419q-31 0 -51 -20t-20 -51q0 -29 21 -50.5t50 -21.5q30 0 51 21q22 22 22 51t-21.5 50t-51.5 21z" />
    <glyph glyph-name="paragraph" unicode="&#xb6;" horiz-adv-x="355" 
d="M307 -119h-30v662h-71v-662h-27v393q-81 0 -128 30q-51 36 -51 115q0 75 46 112q44 32 121 32h190v-20h-50v-662z" />
    <glyph glyph-name="middot" unicode="&#xb7;" horiz-adv-x="165" 
d="M83 254q15 0 25 -10.5t10 -24.5q0 -15 -10.5 -25.5t-24.5 -10.5q-16 0 -26 10t-10 26q0 15 10 25t26 10z" />
    <glyph glyph-name="middot" unicode="&#x2219;" horiz-adv-x="165" 
d="M83 254q15 0 25 -10.5t10 -24.5q0 -15 -10.5 -25.5t-24.5 -10.5q-16 0 -26 10t-10 26q0 15 10 25t26 10z" />
    <glyph glyph-name="guillemotright" unicode="&#xbb;" horiz-adv-x="319" 
d="M285 145l-110 -83v72l61 46l-61 46v71l110 -82v-70zM149 145l-109 -84v73l59 46l-59 46v72l109 -83v-70z" />
    <glyph glyph-name="onequarter" unicode="&#xbc;" horiz-adv-x="648" 
 />
    <glyph glyph-name="onehalf" unicode="&#xbd;" horiz-adv-x="663" 
 />
    <glyph glyph-name="threequarters" unicode="&#xbe;" horiz-adv-x="648" 
 />
    <glyph glyph-name="multiply" unicode="&#xd7;" horiz-adv-x="374" 
d="M349 50l-46 -46l-117 117l-116 -116l-46 46l116 116l-116 116l46 46l116 -116l117 116l46 -46l-117 -116z" />
    <glyph glyph-name="divide" unicode="&#xf7;" horiz-adv-x="374" 
d="M232 293q0 -18 -13 -31t-31 -13t-31 13t-13 31t13 31t31 13t31 -13t13 -31zM354 134h-334v65h334v-65zM231 40q0 -18 -13 -31t-31 -13t-31 13t-13 31t13 31t31 13t31 -13t13 -31z" />
    <glyph glyph-name="uni0E00" unicode="&#xe00;" horiz-adv-x="100" 
 />
    <glyph glyph-name="uni0E01" unicode="&#xe01;" horiz-adv-x="410" 
d="M294 0v267q0 70 -93 70q-31 0 -55.5 -10.5t-33.5 -25.5q30 -18 30 -36q0 -10 -13 -26t-13 -29v-210h-86v210q0 13 15.5 26.5t15.5 21.5q0 6 -21 19l-21 12q9 56 60 87t123 31q77 0 127.5 -33.5t50.5 -100.5v-273h-86z" />
    <glyph glyph-name="uni0E02" unicode="&#xe02;" horiz-adv-x="370" 
d="M340 118q0 -66 -45.5 -95.5t-109.5 -29.5t-109.5 29.5t-45.5 95.5v131q0 17 11.5 29.5t25.5 18t25.5 13t11.5 15.5q0 12 -22 12h-58v63h66q53 0 76.5 -17t23.5 -54q0 -19 -11.5 -32t-25.5 -18.5t-25.5 -15t-11.5 -21.5v-123q0 -56 69 -56t69 56v281h86v-282z" />
    <glyph glyph-name="uni0E03" unicode="&#xe03;" horiz-adv-x="375" 
d="M345 116q0 -64 -46 -93.5t-109 -29.5t-109 29.5t-46 93.5v120q0 18 12.5 31.5t27 20t27 16.5t12.5 21q0 4 -4 16l-3 5l-45 -38l-63 54l51 43l31 -27l31 25q81 6 81 -70q0 -22 -11.5 -39t-24.5 -25t-24.5 -19t-11.5 -23v-109q0 -56 69 -56t69 56v282h86v-284z" />
    <glyph glyph-name="uni0E04" unicode="&#xe04;" horiz-adv-x="420" 
d="M304 0v272q0 33 -27 49t-67 16t-67 -16t-27 -49v-35h122v-74h-122v-163h-86v273q0 65 54 99.5t126 34.5q73 0 126.5 -34t53.5 -100v-273h-86z" />
    <glyph glyph-name="uni0E05" unicode="&#xe05;" horiz-adv-x="420" 
d="M304 0v290q0 34 -31 42l-61 -42l-64 42q-32 -8 -32 -42v-53h122v-74h-122v-163h-86v284q0 49 33.5 83t93.5 40l53 -37l53 37q61 -6 94 -39.5t33 -83.5v-284h-86z" />
    <glyph glyph-name="uni0E06" unicode="&#xe06;" horiz-adv-x="425" 
d="M395 123q0 -129 -142 -129q-39 0 -74.5 17.5t-57.5 43.5v-55h-86v236q0 18 12.5 31.5t27 20t27 16.5t12.5 21q0 4 -4 16l-3 5l-45 -38l-63 54l51 43l31 -27l31 25q81 6 81 -70q0 -22 -11.5 -39t-24.5 -25t-24.5 -19t-11.5 -23v-69q0 -30 36 -62.5t84 -32.5q68 0 68 59
v278h86v-277z" />
    <glyph glyph-name="uni0E07" unicode="&#xe07;" horiz-adv-x="378" 
d="M357 256q5 -44 -2 -86.5t-26.5 -82t-62 -63.5t-103.5 -24h-57l-108 323l72 54l101 -302h1q54 0 78.5 48.5t20.5 115.5q-8 111 -151 89v75q108 14 168 -26.5t69 -120.5z" />
    <glyph glyph-name="uni0E08" unicode="&#xe08;" horiz-adv-x="389" 
d="M367 224q0 -116 -69.5 -175t-184.5 -51l-56 220l-18 32h98l43 -173q42 6 71.5 47t29.5 100q0 51 -29 82.5t-76 31.5q-79 0 -101 -58h-83q8 57 57.5 92t126.5 35q87 0 139 -47.5t52 -135.5z" />
    <glyph glyph-name="uni0E09" unicode="&#xe09;" horiz-adv-x="415" 
d="M299 0v55q-51 -61 -132 -61q-132 0 -132 129v99l-10 31h96v-128q0 -62 63 -62q48 0 81.5 32t33.5 63v109q0 36 -27.5 53t-71.5 17q-80 0 -97 -48h-90q15 61 67.5 89.5t119.5 28.5q79 0 132 -34t53 -100v-273h-86z" />
    <glyph glyph-name="uni0E0A" unicode="&#xe0a;" horiz-adv-x="402" 
d="M381 160q0 -80 -55 -121t-143 -41l-153 2v400h86v-331l64 -2q46 -2 80.5 23t34.5 69q0 36 -25 60.5t-62 24.5h-58v69h58q33 0 54.5 20t18.5 67h84q8 -41 -13.5 -74t-52.5 -49q34 -13 58 -45t24 -72z" />
    <glyph glyph-name="uni0E0B" unicode="&#xe0b;" horiz-adv-x="418" 
d="M397 160q0 -80 -55 -121t-143 -41l-153 2v236q0 23 15 38t29.5 26t14.5 25q0 7 -3 16l-4 5l-45 -38l-63 54l51 43l31 -27l31 25q81 6 81 -70q0 -28 -13 -46.5t-26 -31.5t-13 -28v-158l64 -2q46 -2 80.5 23t34.5 69q0 36 -25 60.5t-62 24.5h-30v69h30q34 0 55 20t18 67h84
q8 -41 -13.5 -74t-52.5 -49q34 -13 58 -45t24 -72z" />
    <glyph glyph-name="uni0E0C" unicode="&#xe0c;" horiz-adv-x="644" 
d="M614 124q0 -71 -35.5 -100.5t-89.5 -29.5q-68 0 -109 48v-42h-86v267q0 70 -93 70q-31 0 -55.5 -10.5t-33.5 -25.5q30 -18 30 -36q0 -10 -13 -26t-13 -29v-141h52v-69h-138v210q0 13 15.5 26.5t15.5 21.5q0 6 -21 19l-21 12q9 56 60 87t123 31q77 0 127.5 -33.5
t50.5 -100.5v-131q0 -27 26 -50.5t64 -23.5q58 0 58 60v272h86v-276z" />
    <glyph glyph-name="uni0E0D" unicode="&#xe0d;" horiz-adv-x="644" 
d="M614 28q0 -67 -43 -103t-117 -36h-160v66h154q41 0 61.5 18t18.5 45q-41 -28 -95 -28q-61 0 -100 28.5t-39 93.5v155q0 70 -93 70q-31 0 -55.5 -10.5t-33.5 -25.5q30 -18 30 -36q0 -10 -13 -26t-13 -29v-141h52v-69h-138v210q0 13 15.5 26.5t15.5 21.5q0 6 -21 19l-21 12
q9 56 60 87t123 31q77 0 127.5 -33.5t50.5 -100.5v-157q0 -56 64 -56q33 0 58.5 18.5t25.5 52.5v269h86v-372z" />
    <glyph glyph-name="uni0E0E" unicode="&#xe0e;" horiz-adv-x="420" 
d="M312 -150l-63 49l-61 -49h-131v67h107l86 64l54 -42v328q0 35 -25 52.5t-68 17.5q-31 0 -55.5 -10.5t-33.5 -25.5q30 -18 30 -36q0 -10 -13 -26t-13 -29v-210h-121v70h35v140q0 13 15.5 26.5t15.5 21.5q0 6 -21 19l-21 12q9 56 60 87t123 31q77 0 127.5 -33.5
t50.5 -100.5v-423h-78z" />
    <glyph glyph-name="uni0E0F" unicode="&#xe0f;" horiz-adv-x="420" 
d="M312 -150l-45 38l-50 -49l-54 50l-39 -39h-102v66h74l68 56l51 -45l53 45l36 -27v322q0 35 -25 52.5t-68 17.5q-31 0 -55.5 -10.5t-33.5 -25.5q30 -18 30 -36q0 -10 -13 -26t-13 -29v-210h-121v70h35v140q0 13 15.5 26.5t15.5 21.5q0 6 -21 19l-21 12q9 56 60 87t123 31
q77 0 127.5 -33.5t50.5 -100.5v-423h-78z" />
    <glyph glyph-name="uni0E10" unicode="&#xe10;" horiz-adv-x="389" 
d="M367 224q0 -116 -69.5 -175t-184.5 -51l-56 220l-18 32h98l43 -173q42 6 71.5 47t29.5 100q0 51 -29 82.5t-76 31.5q-79 0 -101 -58h-83q8 57 57.5 92t126.5 35q32 0 68 -9q19 15 19 32h91q0 -20 -13.5 -38t-31.5 -27q58 -50 58 -141zM260 -148l-40 33l-46 -43l-47 44
l-42 -32h-93v66h71l65 48l46 -42l42 42l38 -35v51h76v-132h-70z" />
    <glyph glyph-name="uni0E11" unicode="&#xe11;" horiz-adv-x="441" 
d="M325 0v285q0 45 -21 45q-15 0 -57 -70q-35 -61 -72.5 -147t-37.5 -106v-7h-86v236q0 29 27 51.5t27 37.5q0 7 -3 16l-4 5l-45 -38l-63 54l51 43l31 -27l31 25q81 6 81 -70q0 -28 -12 -46.5t-23.5 -31.5t-11.5 -28v-9q0 -16 -5 -49l-4 -34h3q18 78 29 101q16 32 31 57
q34 55 61.5 83t62.5 28q96 0 96 -110v-294h-86z" />
    <glyph glyph-name="uni0E12" unicode="&#xe12;" horiz-adv-x="659" 
d="M629 124q0 -71 -35.5 -100.5t-89.5 -29.5q-68 0 -109 48v-42h-86v312l-49 -49l-75 63q-36 -10 -60 -45t-24 -80q0 -71 45 -108.5t123 -12.5v-77q-123 -23 -188.5 35.5t-65.5 162.5q0 82 50 136.5t138 68.5l56 -52l55 46h81v-258q0 -28 25.5 -51t64.5 -23q58 0 58 60v272
h86v-276z" />
    <glyph glyph-name="uni0E13" unicode="&#xe13;" horiz-adv-x="644" 
d="M528 0v42q-41 -48 -109 -48q-54 0 -89.5 29.5t-35.5 100.5v143q0 70 -93 70q-31 0 -55.5 -10.5t-33.5 -25.5q30 -18 30 -36q0 -10 -13 -26t-13 -29v-141h52v-69h-138v210q0 13 15.5 26.5t15.5 21.5q0 6 -21 19l-21 12q9 56 60 87t123 31q77 0 127.5 -33.5t50.5 -100.5
v-145q0 -60 58 -60q38 0 64 23.5t26 50.5v258h86v-400h-86z" />
    <glyph glyph-name="uni0E14" unicode="&#xe14;" horiz-adv-x="423" 
d="M307 -2v332h-91q-51 0 -83 -39.5t-32 -92.5q0 -71 43.5 -107.5t122.5 -10.5v-77q-122 -25 -187 32.5t-65 162.5q0 86 58.5 144t146.5 58h173v-402h-86z" />
    <glyph glyph-name="uni0E15" unicode="&#xe15;" horiz-adv-x="425" 
d="M309 0v312l-49 -49l-75 63q-36 -10 -60 -45t-24 -80q0 -71 45 -108.5t123 -12.5v-77q-123 -23 -188.5 35.5t-65.5 162.5q0 82 50 136.5t138 68.5l56 -52l55 46h81v-400h-86z" />
    <glyph glyph-name="uni0E16" unicode="&#xe16;" horiz-adv-x="410" 
d="M294 0v267q0 70 -93 70q-31 0 -55.5 -10.5t-33.5 -25.5q30 -18 30 -36q0 -10 -13 -26t-13 -29v-141h52v-69h-138v210q0 13 15.5 26.5t15.5 21.5q0 6 -21 19l-21 12q9 56 60 87t123 31q77 0 127.5 -33.5t50.5 -100.5v-273h-86z" />
    <glyph glyph-name="uni0E17" unicode="&#xe17;" horiz-adv-x="420" 
d="M304 0v276q0 61 -68 61q-48 0 -84 -32.5t-36 -62.5v-242h-86v400h86v-55q21 25 57.5 43t74.5 18q67 0 104.5 -33t37.5 -98v-275h-86z" />
    <glyph glyph-name="uni0E18" unicode="&#xe18;" horiz-adv-x="402" 
d="M382 140q0 -80 -42.5 -110t-116.5 -30h-193v196h86v-126h88q44 0 68 14t24 53q-4 57 -90 65q-8 1 -31.5 3.5t-32 3.5t-28 4t-27 6t-21.5 8.5t-20 12t-13 15.5t-9 21t-2 27q2 47 49.5 75.5t123.5 28.5q170 0 184 -118h-86q-11 48 -103 48q-34 0 -58 -9.5t-24 -24.5
q0 -12 25 -17.5t76 -9.5q9 -1 13 -1q35 -3 61 -10.5t50 -21.5t36.5 -40t12.5 -63z" />
    <glyph glyph-name="uni0E19" unicode="&#xe19;" horiz-adv-x="420" 
d="M304 0v55q-21 -25 -58 -43t-74 -18q-68 0 -105 33t-37 98v275h86v-276q0 -61 68 -61q48 0 84 32.5t36 62.5v242h86v-400h-86z" />
    <glyph glyph-name="uni0E1A" unicode="&#xe1a;" horiz-adv-x="420" 
d="M390 129q0 -67 -52 -101.5t-128 -34.5q-77 0 -128.5 34.5t-51.5 101.5v271h86v-266q0 -36 26.5 -53.5t67.5 -17.5t67.5 17.5t26.5 53.5v266h86v-271z" />
    <glyph glyph-name="uni0E1B" unicode="&#xe1b;" horiz-adv-x="420" 
d="M390 129q0 -67 -52 -101.5t-128 -34.5q-77 0 -128.5 34.5t-51.5 101.5v271h86v-266q0 -36 26.5 -53.5t67.5 -17.5t67.5 17.5t26.5 53.5v361h86v-366z" />
    <glyph glyph-name="uni0E1C" unicode="&#xe1c;" horiz-adv-x="554" 
d="M439 0h-70l-92 276l-92 -276h-70l-115 400h162v-64h-59l52 -201l87 265h70l87 -265l69 265h86z" />
    <glyph glyph-name="uni0E1D" unicode="&#xe1d;" horiz-adv-x="554" 
d="M439 0h-70l-92 276l-92 -276h-70l-115 400h162v-64h-59l52 -201l87 265h70l87 -265l96 360h86z" />
    <glyph glyph-name="uni0E1E" unicode="&#xe1e;" horiz-adv-x="554" 
d="M439 0h-70l-92 276l-92 -276h-70l-115 400h86l69 -265l87 265h70l87 -265l69 265h86z" />
    <glyph glyph-name="uni0E1F" unicode="&#xe1f;" horiz-adv-x="554" 
d="M439 0h-70l-92 276l-92 -276h-70l-115 400h86l69 -265l87 265h70l87 -265l96 360h86z" />
    <glyph glyph-name="uni0E20" unicode="&#xe20;" horiz-adv-x="420" 
d="M304 0v267q0 35 -25 52.5t-68 17.5q-31 0 -55.5 -10.5t-33.5 -25.5q30 -18 30 -36q0 -10 -13 -26t-13 -29v-210h-121v70h35v140q0 13 15.5 26.5t15.5 21.5q0 6 -21 19l-21 12q9 56 60 87t123 31q77 0 127.5 -33.5t50.5 -100.5v-273h-86z" />
    <glyph glyph-name="uni0E21" unicode="&#xe21;" horiz-adv-x="420" 
d="M390 125q0 -65 -37 -98t-105 -33q-39 0 -74.5 17.5t-57.5 43.5v-55h-86v400h86v-242q0 -30 36 -62.5t84 -32.5q68 0 68 61v276h86v-275z" />
    <glyph glyph-name="uni0E22" unicode="&#xe22;" horiz-adv-x="425" 
d="M202 -4q-92 -2 -139 31t-46 101q2 33 22.5 59t50.5 34q-63 18 -63 77q0 35 21.5 61t58.5 37q40 12 103 3v-70q-41 8 -69 0t-28 -31q0 -36 73 -36h123v138h86v-400zM309 192h-112q-46 0 -69.5 -17.5t-23.5 -46.5q0 -66 109 -61l96 2v123z" />
    <glyph glyph-name="uni0E23" unicode="&#xe23;" horiz-adv-x="387" 
d="M372 131q0 -75 -51.5 -106.5t-130.5 -31.5q-176 0 -180 157h87q0 -87 93 -87q96 0 96 65q0 50 -85 56q-97 11 -124 22q-57 23 -57 85q0 50 49 83t119 33q73 0 125 -31t54 -97h-86q-3 30 -31 44t-64 14q-32 0 -56 -11t-24 -30q0 -17 24 -24t72 -11q7 -1 11 -1
q74 -7 116.5 -34.5t42.5 -94.5z" />
    <glyph glyph-name="uni0E24" unicode="&#xe24;" horiz-adv-x="410" 
d="M294 -120v387q0 70 -93 70q-31 0 -55.5 -10.5t-33.5 -25.5q30 -18 30 -36q0 -10 -13 -26t-13 -29v-141h52v-69h-138v210q0 13 15.5 26.5t15.5 21.5q0 6 -21 19l-21 12q9 56 60 87t123 31q77 0 127.5 -33.5t50.5 -100.5v-393h-86z" />
    <glyph glyph-name="uni0E25" unicode="&#xe25;" horiz-adv-x="418" 
d="M302 -1v195q-35 -19 -124 -19q-77 -6 -77 -56q0 -73 134 -42v-75q-220 -32 -220 117q0 116 137 128q11 1 35 1.5t40.5 2t34.5 5t27.5 12t9.5 22.5q0 22 -25.5 34.5t-62.5 12.5t-65 -15.5t-34 -42.5h-88q11 66 64 97t124 31q73 0 124.5 -29.5t51.5 -95.5v-283h-86z" />
    <glyph glyph-name="uni0E26" unicode="&#xe26;" horiz-adv-x="420" 
d="M304 -120v387q0 35 -25 52.5t-68 17.5q-31 0 -55.5 -10.5t-33.5 -25.5q30 -18 30 -36q0 -10 -13 -26t-13 -29v-210h-121v70h35v140q0 13 15.5 26.5t15.5 21.5q0 6 -21 19l-21 12q9 56 60 87t123 31q77 0 127.5 -33.5t50.5 -100.5v-393h-86z" />
    <glyph glyph-name="uni0E27" unicode="&#xe27;" horiz-adv-x="401" 
d="M386 200q0 -108 -52.5 -157.5t-136.5 -49.5q-150 0 -182 137h92q24 -67 90 -67q103 0 103 137t-103 137q-66 0 -90 -67h-92q16 67 62.5 102t119.5 35q84 0 136.5 -49.5t52.5 -157.5z" />
    <glyph glyph-name="uni0E28" unicode="&#xe28;" horiz-adv-x="420" 
d="M391 430q0 -20 -15.5 -36.5t-35.5 -23.5q50 -34 50 -97v-273h-86v272q0 33 -27 49t-67 16t-67 -16t-27 -49v-35h122v-74h-122v-163h-86v273q0 65 54 99.5t126 34.5q32 0 66 -8q24 8 24 31h91z" />
    <glyph glyph-name="uni0E29" unicode="&#xe29;" horiz-adv-x="425" 
d="M390 196v-67q0 -67 -52 -101.5t-128 -34.5q-77 0 -128.5 34.5t-51.5 101.5v271h86v-266q0 -36 26.5 -53.5t67.5 -17.5t67.5 17.5t26.5 53.5v62h-124v87h86v-27h38v144h86v-144h30v-60h-30z" />
    <glyph glyph-name="uni0E2A" unicode="&#xe2a;" horiz-adv-x="418" 
d="M302 -1v195q-35 -19 -124 -19q-77 -6 -77 -56q0 -73 134 -42v-75q-220 -32 -220 117q0 116 137 128q11 1 35 1.5t40.5 2t34.5 5t27.5 12t9.5 22.5q0 22 -25.5 34.5t-62.5 12.5t-65 -15.5t-34 -42.5h-88q11 66 64 97t124 31q32 0 62 -6q20 8 20 29h91q0 -34 -43 -57
q46 -33 46 -91v-283h-86z" />
    <glyph glyph-name="uni0E2B" unicode="&#xe2b;" horiz-adv-x="420" 
d="M150 331v69h220v-69h-220zM304 0v179q0 62 -68 62q-45 0 -82.5 -31.5t-37.5 -63.5v-146h-86v400h86v-135q20 22 54.5 36.5t70.5 14.5q68 0 108.5 -32.5t40.5 -97.5v-186h-86z" />
    <glyph glyph-name="uni0E2C" unicode="&#xe2c;" horiz-adv-x="554" 
d="M581 495q-6 -25 -14 -42t-30.5 -32.5t-56.5 -17.5q69 -27 45 -103l-86 -300h-70l-92 275l-92 -275h-70l-115 400h87l68 -265l87 265h70l87 -265l46 175q8 28 -8.5 49t-51.5 21h-22v60h39q50 0 69 15t24 40h86z" />
    <glyph glyph-name="uni0E2D" unicode="&#xe2d;" horiz-adv-x="442" 
d="M427 200q0 -104 -57 -155.5t-149 -51.5q-90 0 -148 52t-58 155q0 37 7 61h160v-66h-81q2 -64 34 -98t86 -34q55 0 87.5 36t32.5 101q0 66 -32.5 101.5t-87.5 35.5q-63 0 -97 -51h-95q19 56 67.5 88.5t124.5 32.5q92 0 149 -51.5t57 -155.5z" />
    <glyph glyph-name="uni0E2E" unicode="&#xe2e;" horiz-adv-x="442" 
d="M427 200q0 -104 -57 -155.5t-149 -51.5q-90 0 -148 52t-58 155q0 37 7 61h160v-66h-81q2 -64 34 -98t86 -34q55 0 87.5 36t32.5 101q0 66 -32.5 101.5t-87.5 35.5q-63 0 -97 -51h-95q19 56 67.5 88.5t124.5 32.5q36 0 63 -7q20 12 20 30h91q0 -39 -45 -59q77 -52 77 -171
z" />
    <glyph glyph-name="uni0E2F" unicode="&#xe2f;" horiz-adv-x="383" 
d="M268 0v259q-54 -48 -125 -48q-50 0 -89 27.5t-39 74.5q0 39 29 63t68 26.5t79 -9.5v-64q-29 18 -60 11.5t-31 -28.5q0 -14 12.5 -22.5t31.5 -8.5q51 0 84 32.5t41 86.5h84v-400h-85z" />
    <glyph glyph-name="uni0E30" unicode="&#xe30;" horiz-adv-x="220" 
d="M198 257h-173v98h86v-44h87v-54zM198 45h-173v98h86v-44h87v-54z" />
    <glyph glyph-name="uni0E31" unicode="&#xe31;" 
d="M83 450h-305v98h86v-44h219v-54z" />
    <glyph glyph-name="uni0E32" unicode="&#xe32;" horiz-adv-x="235" 
d="M205 0h-86v282q0 27 -31.5 41.5t-82.5 5.5v70q86 14 143 -13.5t57 -88.5v-297z" />
    <glyph glyph-name="uni0E33" unicode="&#xe33;" horiz-adv-x="235" 
d="M-8 503q0 -25 -18.5 -41t-46.5 -16t-46.5 16t-18.5 41t18.5 41t46.5 16t46.5 -16t18.5 -41zM205 0h-86v282q0 27 -31.5 41.5t-82.5 5.5v70q86 14 143 -13.5t57 -88.5v-297zM-48 503q0 9 -7.5 15.5t-17.5 6.5t-17.5 -6.5t-7.5 -15.5t7.5 -15.5t17.5 -6.5t17.5 6.5
t7.5 15.5z" />
    <glyph glyph-name="uni0E34" unicode="&#xe34;" 
d="M-30 450h-325v54h325v-54z" />
    <glyph glyph-name="uni0E35" unicode="&#xe35;" 
d="M-30 450h-325v54h239v51h86v-105z" />
    <glyph glyph-name="uni0E36" unicode="&#xe36;" 
d="M-10 505q0 -24 -17.5 -39.5t-45.5 -15.5h-282v54h219q0 25 17.5 40.5t45.5 15.5t45.5 -15.5t17.5 -39.5zM-50 505q0 9 -6.5 15t-16.5 6t-16.5 -6t-6.5 -15t6.5 -15t16.5 -6t16.5 6t6.5 15z" />
    <glyph glyph-name="uni0E37" unicode="&#xe37;" 
d="M-30 450h-325v54h153v51h56v-51h30v51h86v-105z" />
    <glyph glyph-name="uni0E38" unicode="&#xe38;" 
d="M-30 -160h-86v76h-40v54h126v-130z" />
    <glyph glyph-name="uni0E39" unicode="&#xe39;" 
d="M-30 -94q0 -66 -106 -66q-102 0 -102 66v10h-30v54h106v-64q0 -23 23 -23t23 23v64h86v-64z" />
    <glyph glyph-name="uni0E3A" unicode="&#xe3a;" 
d="M-17 -86q0 -23 -16.5 -39.5t-39.5 -16.5t-39.5 16.5t-16.5 39.5t16.5 39.5t39.5 16.5t39.5 -16.5t16.5 -39.5z" />
    <glyph glyph-name="uni0E3F" unicode="&#xe3f;" horiz-adv-x="473" 
d="M448 133q0 -60 -44 -96.5t-133 -36.5h-18v-63h-36v63h-167v471h167v63h36v-63h30q68 0 106 -30t38 -89q0 -68 -60 -98q39 -11 60 -42.5t21 -78.5zM337 337q0 60 -66 60h-18v-120h18q29 0 47.5 16t18.5 44zM217 277v120h-76v-120h76zM358 144q0 32 -19.5 49t-55.5 17h-30
v-136h30q36 0 55.5 18t19.5 52zM217 74v136h-76v-136h76z" />
    <glyph glyph-name="uni0E40" unicode="&#xe40;" horiz-adv-x="186" 
d="M136 0h-86v400h86v-400z" />
    <glyph glyph-name="uni0E41" unicode="&#xe41;" horiz-adv-x="332" 
d="M282 0h-86v400h86v-400zM136 0h-86v400h86v-400z" />
    <glyph glyph-name="uni0E42" unicode="&#xe42;" horiz-adv-x="206" 
d="M231 555l-93 2q-38 0 -38 -13q0 -7 11.5 -15t23 -22t11.5 -36v-471h-86v456q0 25 -23 48t-23 45q0 27 23.5 45.5t68.5 17.5l125 -2v-55z" />
    <glyph glyph-name="uni0E43" unicode="&#xe43;" horiz-adv-x="206" 
d="M193 544q0 -25 -23.5 -48.5t-23.5 -45.5v-450h-86v458q0 28 23 47t23 34q0 29 -36 29q-22 0 -33 -13t-9 -30h-69q-7 42 27 69.5t91 27.5q54 0 85 -21.5t31 -56.5z" />
    <glyph glyph-name="uni0E44" unicode="&#xe44;" horiz-adv-x="206" 
d="M174 556q1 -14 -13.5 -32.5t-14.5 -32.5v-491h-86v490q0 17 14.5 31.5t14.5 20.5q0 8 -17 8h-7l-43 -28l-98 54l52 35l45 -28l36 21h44q72 0 73 -48z" />
    <glyph glyph-name="uni0E45" unicode="&#xe45;" horiz-adv-x="235" 
d="M205 -120h-86v402q0 27 -31.5 41.5t-82.5 5.5v70q86 14 143 -13.5t57 -88.5v-417z" />
    <glyph glyph-name="uni0E46" unicode="&#xe46;" horiz-adv-x="385" 
d="M355 -120h-86v418l-42 -38l-88 72q-15 -2 -26 -13t-11 -25q0 -23 22 -33.5t53 -5.5v-71q-73 -9 -117.5 20.5t-44.5 84.5q0 48 40.5 82t109.5 34l61 -50l52 45h77v-520z" />
    <glyph glyph-name="uni0E47" unicode="&#xe47;" 
d="M-39 547h-198q-48 0 -48 -30q0 -12 9 -19h33l86 37l102 -41v-58l-100 42l-78 -33l-82 1q-37 22 -37 68q0 34 28 58t77 24h208v-49z" />
    <glyph glyph-name="uni0E48" unicode="&#xe48;" 
d="M-30 585h-86v85h86v-85z" />
    <glyph glyph-name="uni0E49" unicode="&#xe49;" 
d="M19 585h-184v17q0 27 -27 27h-14v49h65q53 0 53 -45h107v-48z" />
    <glyph glyph-name="uni0E4A" unicode="&#xe4a;" 
d="M61 585h-93v42q0 20 -18 20h-5l-39 -27l-41 27h-1q-20 0 -18 -20v-2h27v-40h-79v46q0 30 20.5 47t51.5 17h7l34 -24l32 24h8q31 0 50.5 -16t20.5 -45h43v-49z" />
    <glyph glyph-name="uni0E4B" unicode="&#xe4b;" 
d="M5 620h-38v-35h-78v35h-38v38h38v35h78v-35h38v-38z" />
    <glyph glyph-name="uni0E4C" unicode="&#xe4c;" 
d="M0 571h-44q-14 0 -23 -8t-9 -20v-9h-77v30q0 29 20 45t50 16h83v-54z" />
    <glyph glyph-name="uni0E4D" unicode="&#xe4d;" 
d="M-8 503q0 -25 -18.5 -41t-46.5 -16t-46.5 16t-18.5 41t18.5 41t46.5 16t46.5 -16t18.5 -41zM-48 503q0 9 -7.5 15.5t-17.5 6.5t-17.5 -6.5t-7.5 -15.5t7.5 -15.5t17.5 -6.5t17.5 6.5t7.5 15.5z" />
    <glyph glyph-name="uni0E4E" unicode="&#xe4e;" 
d="M1 649q-56 2 -102 -9q-44 -11 -44 -27q0 -11 14.5 -15.5t29.5 -3.5h15v-46q-52 4 -86 -7q-18 -6 -29 -15t-8 -19q3 -11 31 -7t49 18l26 -44l-16 -8t-36.5 -11.5t-48.5 -4.5q-30 4 -47.5 19.5t-18.5 35.5t12 37.5t34 26.5q16 8 31 11q-14 12 -14 33q0 19 18.5 40t46.5 31
q22 9 57.5 13t60.5 4h25v-52z" />
    <glyph glyph-name="uni0E4F" unicode="&#xe4f;" horiz-adv-x="470" 
d="M440 200q0 -85 -60 -145t-145 -60t-145 60t-60 145t60 145t145 60t145 -60t60 -145zM410 200q0 72 -51.5 123.5t-123.5 51.5t-123.5 -51.5t-51.5 -123.5t51.5 -123.5t123.5 -51.5t123.5 51.5t51.5 123.5zM360 200q0 -52 -36.5 -88.5t-88.5 -36.5t-88.5 36.5t-36.5 88.5
t36.5 88.5t88.5 36.5t88.5 -36.5t36.5 -88.5z" />
    <glyph glyph-name="uni0E50" unicode="&#xe50;" horiz-adv-x="398" 
d="M378 150q0 -66 -50 -111t-129 -45t-129 45t-50 111t50 111t129 45t129 -45t50 -111zM303 150q0 39 -29 65t-76 26t-76 -26t-29 -65t29 -65t76 -26t76 26t29 65z" />
    <glyph glyph-name="uni0E51" unicode="&#xe51;" horiz-adv-x="422" 
d="M402 152q0 -75 -66 -129t-159 -68l-32 51q78 10 129.5 49.5t51.5 91.5q0 41 -33 67.5t-85 26.5q-48 0 -80 -23.5t-32 -59.5q0 -17 9 -31t22 -19q-3 9 -3 22q0 28 22.5 48t52.5 20q32 0 54 -20t22 -48q0 -40 -33 -66.5t-85 -26.5q-55 0 -96 33.5t-41 88.5q0 66 53.5 106.5
t133.5 40.5q89 0 142 -41.5t53 -112.5zM228 128q0 11 -8.5 19.5t-19.5 8.5t-19.5 -8.5t-8.5 -19.5t8.5 -19.5t19.5 -8.5t19.5 8.5t8.5 19.5z" />
    <glyph glyph-name="uni0E52" unicode="&#xe52;" horiz-adv-x="566" 
d="M536 97q0 -45 -28.5 -71t-75.5 -26h-298q-48 0 -76 26t-28 71v211q0 44 -62 44l34 57q49 0 76.5 -21.5t27.5 -59.5v-223q0 -38 42 -38h270q42 0 42 38v109q0 36 -41 36q-14 0 -26 -9t-12 -21v-123h-76v119q0 14 -14 24t-35 10q-38 0 -49 -28q-1 -2 0 -2q30 0 51 -18.5
t21 -45.5t-21 -45.5t-51 -18.5t-50.5 18.5t-20.5 45.5v54q0 45 34.5 73t87.5 28q57 0 85 -35q29 35 79 35q52 0 83 -26.5t31 -72.5v-115zM234 157q0 11 -7 18t-18 7t-18 -7t-7 -18t7 -18t18 -7t18 7t7 18z" />
    <glyph glyph-name="uni0E53" unicode="&#xe53;" horiz-adv-x="487" 
d="M457 0h-76v203q0 41 -45 41q-19 0 -31.5 -10.5t-12.5 -26.5v-207h-76v204q0 18 -14 29t-38 11q-25 0 -41.5 -12t-16.5 -31v-55h7q34 0 58.5 -22t24.5 -53q0 -32 -24 -54t-59 -22t-59 22t-24 54v128q0 51 39 79.5t94 28.5q64 0 92 -39q28 39 84 39q53 0 85.5 -26.5
t32.5 -74.5v-206zM143 70q0 12 -8.5 20.5t-20.5 8.5t-20.5 -8.5t-8.5 -20.5t8.5 -20.5t20.5 -8.5t20.5 8.5t8.5 20.5z" />
    <glyph glyph-name="uni0E54" unicode="&#xe54;" horiz-adv-x="452" 
d="M452 412q1 -71 -34 -118t-95 -49q-23 -1 -61.5 1t-61.5 2q-45 1 -74.5 -25.5t-29.5 -71.5q0 -42 27 -66.5t66 -24.5q42 0 62 8q-50 27 -50 73q0 32 24 53.5t56 21.5q34 0 56.5 -20.5t22.5 -51.5q0 -30 -27 -54q10 -6 52 -13t65 -30l-43 -52q-49 24 -82 24q-17 0 -61 -13
t-79 -13q-70 0 -117.5 40.5t-47.5 117.5q0 73 51.5 117t128.5 43q21 0 53.5 -2t60.5 -1q27 1 44 31.5t18 72.5h76zM310 144q0 12 -8.5 20.5t-20.5 8.5t-20.5 -8.5t-8.5 -20.5t8.5 -20.5t20.5 -8.5t20.5 8.5t8.5 20.5z" />
    <glyph glyph-name="uni0E55" unicode="&#xe55;" horiz-adv-x="452" 
d="M452 412q1 -71 -34 -118t-95 -49q-23 -1 -61.5 1t-61.5 2q-45 1 -74.5 -25.5t-29.5 -71.5q0 -42 27 -66.5t66 -24.5q42 0 62 8q-50 27 -50 73q0 32 24 53.5t56 21.5q34 0 56.5 -20.5t22.5 -51.5q0 -30 -27 -54q10 -6 52 -13t65 -30l-43 -52q-49 24 -82 24q-17 0 -61 -13
t-79 -13q-70 0 -117.5 40.5t-47.5 117.5q0 58 33 98t87 55q-10 14 -10 34q0 34 26 55t67 21t67 -21t26 -55q0 -15 -11 -30h9q27 1 44 31.5t18 72.5h76zM257 340q0 12 -10 21t-24 9t-24 -9t-10 -21t10 -21t24 -9t24 9t10 21zM310 144q0 12 -8.5 20.5t-20.5 8.5t-20.5 -8.5
t-8.5 -20.5t8.5 -20.5t20.5 -8.5t20.5 8.5t8.5 20.5z" />
    <glyph glyph-name="uni0E56" unicode="&#xe56;" horiz-adv-x="426" 
d="M406 155q0 -70 -56 -116t-140 -46q-76 0 -121.5 36t-45.5 82q0 32 23.5 52.5t57.5 20.5q33 0 56 -20.5t23 -51.5q0 -32 -24 -50q24 -3 29 -3q51 0 86.5 27.5t35.5 70.5q0 39 -32 65t-78 26q-69 0 -107 -40h-60q-19 110 -90 165l62 39q33 -21 56 -58.5t29 -75.5
q45 34 113 34q80 0 131.5 -43.5t51.5 -113.5zM152 110q0 12 -8.5 20.5t-20.5 8.5t-20.5 -8.5t-8.5 -20.5t8.5 -20.5t20.5 -8.5t20.5 8.5t8.5 20.5z" />
    <glyph glyph-name="uni0E57" unicode="&#xe57;" horiz-adv-x="602" 
d="M641 367q-54 -26 -63 -68q-6 -17 -0.5 -64t3.5 -68q-6 -70 -48 -113t-100 -54h-52v203q0 41 -45 41q-19 0 -31.5 -10.5t-12.5 -26.5v-207h-76v204q0 18 -14 29t-38 11q-25 0 -41.5 -12t-16.5 -31v-55h7q34 0 58.5 -22t24.5 -53q0 -32 -24 -54t-59 -22t-59 22t-24 54v128
q0 51 39 79.5t94 28.5q64 0 92 -39q28 39 84 39q53 0 85.5 -26.5t32.5 -74.5v-123q18 8 32.5 31.5t15.5 54.5q1 23 -4 75t1 68q13 63 74 100zM143 70q0 12 -8.5 20.5t-20.5 8.5t-20.5 -8.5t-8.5 -20.5t8.5 -20.5t20.5 -8.5t20.5 8.5t8.5 20.5z" />
    <glyph glyph-name="uni0E58" unicode="&#xe58;" horiz-adv-x="456" 
d="M462 412q-16 -169 -119 -173q-26 -1 -70.5 5t-69.5 6q-47 0 -77 -23t-30 -62q0 -30 17 -54.5t38 -35.5l61 74q7 -9 18 -22.5t37 -36.5t42 -23l8 5q-40 17 -40 62q0 28 22.5 48.5t54.5 20.5t55.5 -21.5t23.5 -53.5q0 -49 -39 -89.5t-90 -40.5q-38 0 -90 47l-37 -51
q-71 9 -114 56t-43 115q0 70 50.5 109t133.5 39q22 0 63.5 -4.5t62.5 -3.5q46 2 56 107h76zM383 131q0 12 -8.5 20.5t-20.5 8.5t-20.5 -8.5t-8.5 -20.5t8.5 -20.5t20.5 -8.5t20.5 8.5t8.5 20.5z" />
    <glyph glyph-name="uni0E59" unicode="&#xe59;" horiz-adv-x="506" 
d="M527 414q13 -110 -49 -204l-39 6q-3 11 -14.5 22t-29.5 11q-26 0 -35 -24q54 -80 73 -221l-76 -10q-7 53 -17 93t-28 80.5t-48 62.5t-70 22q-41 0 -69.5 -27.5t-28.5 -65.5q0 -43 25 -70q3 29 25.5 49t54.5 20q33 0 56 -22t23 -53q0 -39 -29.5 -64t-72.5 -25
q-72 0 -115 49t-43 116q0 69 49 114t122 45q78 0 123 -40q18 36 63 42q46 6 71 -19q14 43 5 113h74zM228 80q0 12 -8.5 20.5t-20.5 8.5t-20.5 -8.5t-8.5 -20.5t8.5 -20.5t20.5 -8.5t20.5 8.5t8.5 20.5z" />
    <glyph glyph-name="uni0E5A" unicode="&#xe5a;" horiz-adv-x="488" 
d="M458 0h-65v400h65v-400zM353 0h-85v259q-52 -48 -125 -48q-51 0 -89.5 27t-38.5 75q0 39 29 63t68 26t79 -9v-64q-29 17 -60 11t-31 -28q0 -13 13 -22t31 -9q52 0 84.5 32.5t40.5 86.5h84v-400z" />
    <glyph glyph-name="uni0E5B" unicode="&#xe5b;" horiz-adv-x="740" 
d="M719 212q0 -18 -31 -21l-72 -9q-10 -27 -27 -27q-10 0 -25 25q0 1 -0.5 2t-1.5 2q-9 -41 -32 -41q-4 0 -7.5 2t-7 6.5t-5.5 8t-6.5 11t-6.5 11.5q-9 -50 -36 -50q-5 0 -9 2.5t-7 8.5t-5 11.5t-5.5 15.5t-6.5 17q-10 -36 -21 -51.5t-28 -15.5q-21 0 -27 30q-7 31 -9 36
q-17 -61 -52 -102q-55 -60 -120 -60q-62 0 -101.5 49.5t-39.5 129.5q0 76 37.5 127.5t92.5 51.5q48 0 80 -37.5t32 -94.5q0 -45 -21 -74t-53 -29q-28 0 -46.5 21.5t-18.5 51.5t19 51.5t45 21.5q4 0 7 -1q-5 15 -16.5 25t-26.5 10q-30 0 -50.5 -36t-20.5 -92t24 -89.5
t63 -33.5q45 0 79.5 49.5t45.5 129.5q4 27 11 36.5t22 9.5q31 0 50 -66q2 16 2 26q1 30 25 30t47 -48q5 30 22 30q23 0 46 -43q9 28 25 28q15 0 34 -28q9 16 25 13l77 -9q31 -3 31 -22zM221 221q0 12 -7 20t-17 8q-9 0 -15.5 -8t-6.5 -20t6.5 -20t15.5 -8q10 0 17 8t7 20z
" />
    <glyph glyph-name="zerowidthnonjoiner" unicode="&#x200c;" 
 />
    <glyph glyph-name="zerowidthjoiner" unicode="&#x200d;" 
 />
    <glyph glyph-name="endash" unicode="&#x2013;" horiz-adv-x="374" 
d="M354 134h-334v65h334v-65z" />
    <glyph glyph-name="emdash" unicode="&#x2014;" horiz-adv-x="748" 
d="M728 134h-708v65h708v-65z" />
    <glyph glyph-name="quoteleft" unicode="&#x2018;" horiz-adv-x="215" 
d="M170 365q0 -24 -17 -41.5t-42 -17.5q-31 0 -48.5 19.5t-17.5 51.5q0 72 78 126l40 -16q-49 -33 -55 -65q26 1 44 -15.5t18 -41.5z" />
    <glyph glyph-name="quoteright" unicode="&#x2019;" horiz-adv-x="215" 
d="M170 432q0 -72 -78 -126l-40 16q49 33 55 65q-26 -1 -44 15.5t-18 41.5q0 24 17 41.5t42 17.5q31 0 48.5 -19.5t17.5 -51.5z" />
    <glyph glyph-name="quotedblleft" unicode="&#x201c;" horiz-adv-x="370" 
d="M325 365q0 -24 -17 -41.5t-42 -17.5q-31 0 -48.5 19.5t-17.5 51.5q0 72 78 126l40 -16q-49 -33 -55 -65q26 1 44 -15.5t18 -41.5zM170 365q0 -24 -17 -41.5t-42 -17.5q-31 0 -48.5 19.5t-17.5 51.5q0 72 78 126l40 -16q-49 -33 -55 -65q26 1 44 -15.5t18 -41.5z" />
    <glyph glyph-name="quotedblright" unicode="&#x201d;" horiz-adv-x="370" 
d="M325 432q0 -72 -78 -126l-40 16q49 33 55 65q-26 -1 -44 15.5t-18 41.5q0 24 17 41.5t42 17.5q31 0 48.5 -19.5t17.5 -51.5zM170 432q0 -72 -78 -126l-40 16q49 33 55 65q-26 -1 -44 15.5t-18 41.5q0 24 17 41.5t42 17.5q31 0 48.5 -19.5t17.5 -51.5z" />
    <glyph glyph-name="bullet" unicode="&#x2022;" horiz-adv-x="360" 
d="M330 200q0 -62 -44 -106t-106 -44t-106 44t-44 106t44 106t106 44t106 -44t44 -106z" />
    <glyph glyph-name="ellipsis" unicode="&#x2026;" horiz-adv-x="558" 
d="M518 48q0 -22 -15.5 -37.5t-37.5 -15.5t-37.5 15.5t-15.5 37.5t15.5 37.5t37.5 15.5t37.5 -15.5t15.5 -37.5zM332 48q0 -22 -15.5 -37.5t-37.5 -15.5t-37.5 15.5t-15.5 37.5t15.5 37.5t37.5 15.5t37.5 -15.5t15.5 -37.5zM146 48q0 -22 -15.5 -37.5t-37.5 -15.5
t-37.5 15.5t-15.5 37.5t15.5 37.5t37.5 15.5t37.5 -15.5t15.5 -37.5z" />
    <glyph glyph-name="trademark" unicode="&#x2122;" horiz-adv-x="635" 
d="M585 203h-59v165l-63 -165h-50l-62 165v-165h-59v268h79l68 -184l68 184h78v-268zM252 419h-85v-216h-62v216h-85v52h232v-52z" />
    <glyph glyph-name="thothannobasethai" unicode="&#xf700;" horiz-adv-x="389" 
d="M367 224q0 -116 -70 -175.5t-184 -50.5l-56 220l-18 32h98l43 -173q42 6 71.5 47t29.5 100q0 51 -29 82.5t-76 31.5q-78 0 -101 -58h-83q8 57 57.5 92t126.5 35q36 0 68 -9q19 13 19 32h91q0 -20 -13.5 -38t-31.5 -27q58 -50 58 -141z" />
    <glyph glyph-name="saraileftthai" unicode="&#xf701;" 
d="M-162 450h-305v54h305v-54z" />
    <glyph glyph-name="saraiileftthai" unicode="&#xf702;" 
d="M-156 450h-305v54h219v51h86v-105z" />
    <glyph glyph-name="saraueleftthai" unicode="&#xf703;" 
d="M-136 505q0 -24 -17.5 -39.5t-45.5 -15.5h-262v54h199q0 25 17.5 40.5t45.5 15.5t45.5 -15.5t17.5 -39.5zM-176 505q0 9 -6.5 15t-16.5 6t-16.5 -6t-6.5 -15t6.5 -15t16.5 -6t16.5 6t6.5 15z" />
    <glyph glyph-name="saraueeleftthai" unicode="&#xf704;" 
d="M-156 450h-305v54h133v51h56v-51h30v51h86v-105z" />
    <glyph glyph-name="maieklowleftthai" unicode="&#xf705;" 
d="M-166 450h-86v105h86v-105z" />
    <glyph glyph-name="maitholowleftthai" unicode="&#xf706;" 
d="M-96 450h-205v19q0 30 -30 30h-15v55h72q59 0 59 -50h119v-54z" />
    <glyph glyph-name="maitrilowleftthai" unicode="&#xf707;" 
d="M-141 450h-103v47q0 22 -20 22h-5l-44 -30l-45 30h-2q-22 0 -20 -22v-2h30v-45h-87v51q0 34 22.5 52.5t57.5 18.5h7l38 -26l36 26h9q35 0 56.5 -18t22.5 -50h47v-54z" />
    <glyph glyph-name="maichattawalowleftthai" unicode="&#xf708;" 
d="M-143 495h-48v-45h-86v45h-48v42h48v45h86v-45h48v-42z" />
    <glyph glyph-name="thanthakhatlowleftthai" unicode="&#xf709;" 
d="M-146 491h-49q-16 0 -25.5 -8.5t-9.5 -22.5v-10h-86v33q0 33 22 50.5t56 17.5h92v-60z" />
    <glyph glyph-name="maieklowrightthai" unicode="&#xf70a;" 
d="M-30 450h-86v105h86v-105z" />
    <glyph glyph-name="maitholowrightthai" unicode="&#xf70b;" 
d="M23 450h-205v19q0 30 -30 30h-15v55h72q59 0 59 -50h119v-54z" />
    <glyph glyph-name="maitrilowrightthai" unicode="&#xf70c;" 
d="M-26 450h-103v47q0 22 -20 22h-5l-44 -30l-45 30h-2q-22 0 -20 -22v-2h30v-45h-87v51q0 34 22.5 52.5t57.5 18.5h7l38 -26l36 26h9q35 0 56.5 -18t22.5 -50h47v-54z" />
    <glyph glyph-name="maichattawalowrightthai" unicode="&#xf70d;" 
d="M-30 495h-48v-45h-86v45h-48v42h48v45h86v-45h48v-42z" />
    <glyph glyph-name="thanthakhatlowrightthai" unicode="&#xf70e;" 
d="M-20 491h-49q-16 0 -25.5 -8.5t-9.5 -22.5v-10h-86v33q0 33 22 50.5t56 17.5h92v-60z" />
    <glyph glyph-name="yoyingnobasethai" unicode="&#xf70f;" horiz-adv-x="644" 
d="M614 116q0 -45 -26 -74t-60 -39.5t-74 -10.5t-74 10.5t-60 39.5t-26 74v151q0 35 -25 52.5t-68 17.5q-31 0 -55.5 -10.5t-33.5 -25.5q30 -19 30 -36q0 -10 -13 -26t-13 -29v-141h52v-69h-138v210q0 12 15.5 26t15.5 22q0 4 -10.5 12t-20.5 14l-11 5q9 56 60 87t123 31
q77 0 127.5 -33.5t50.5 -100.5v-151q0 -31 21.5 -45.5t52.5 -14.5t52.5 14.5t21.5 45.5v278h86v-284z" />
    <glyph glyph-name="maihanakatleftthai" unicode="&#xf710;" 
d="M9 450h-335v98h86v-44h249v-54z" />
    <glyph glyph-name="nikhahitleftthai" unicode="&#xf711;" 
d="M-134 503q0 -25 -18.5 -41t-46.5 -16t-46.5 16t-18.5 41t18.5 41t46.5 16t46.5 -16t18.5 -41zM-174 503q0 9 -7.5 15.5t-17.5 6.5t-17.5 -6.5t-7.5 -15.5t7.5 -15.5t17.5 -6.5t17.5 6.5t7.5 15.5z" />
    <glyph glyph-name="maitaikhuleftthai" unicode="&#xf712;" 
d="M-130 547h-198q-48 0 -48 -30q0 -12 9 -19h33l86 37l102 -41v-58l-100 42l-78 -33l-82 1q-37 22 -37 68q0 34 28 58t77 24h208v-49z" />
    <glyph glyph-name="maiekupperleftthai" unicode="&#xf713;" 
d="M-156 585h-86v85h86v-85z" />
    <glyph glyph-name="maithoupperleftthai" unicode="&#xf714;" 
d="M-97 585h-184v17q0 27 -27 27h-14v49h65q53 0 53 -45h107v-48z" />
    <glyph glyph-name="maitriupperleftthai" unicode="&#xf715;" 
d="M-55 585h-93v42q0 20 -18 20h-5l-39 -27l-41 27h-1q-20 0 -18 -20v-2h27v-40h-79v46q0 30 20.5 47t51.5 17h7l34 -24l32 24h8q31 0 50.5 -16t20.5 -45h43v-49z" />
    <glyph glyph-name="maichattawaupperleftthai" unicode="&#xf716;" 
d="M-121 620h-38v-35h-78v35h-38v38h38v35h78v-35h38v-38z" />
    <glyph glyph-name="thanthakhatupperleftthai" unicode="&#xf717;" 
d="M-126 571h-44q-14 0 -23 -8t-9 -20v-9h-77v30q0 29 20 45t50 16h83v-54z" />
    <glyph glyph-name="saraulowthai" unicode="&#xf718;" 
d="M-30 -305h-86v76h-40v54h126v-130z" />
    <glyph glyph-name="sarauulowthai" unicode="&#xf719;" 
d="M-30 -239q0 -66 -106 -66q-102 0 -102 66v10h-30v54h106v-64q0 -23 23 -23t23 23v64h86v-64z" />
    <glyph glyph-name="phinthulowthai" unicode="&#xf71a;" 
d="M-30 -231q0 -23 -16.5 -39.5t-39.5 -16.5t-39.5 16.5t-16.5 39.5t16.5 39.5t39.5 16.5t39.5 -16.5t16.5 -39.5z" />
    <glyph glyph-name="lochula.short" unicode="&#xf71d;" horiz-adv-x="492" 
 />
    <glyph glyph-name="fongmanfunnuthai" unicode="&#xf880;" 
 />
    <glyph glyph-name="CR" horiz-adv-x="250" 
 />
    <glyph glyph-name="uni0E33_1" horiz-adv-x="235" 
d="M205 0h-86v282q0 27 -31.5 41.5t-82.5 5.5v70q86 14 143 -13.5t57 -88.5v-297zM-134 503q0 -25 -18.5 -41t-46.5 -16t-46.5 16t-18.5 41t18.5 41t46.5 16t46.5 -16t18.5 -41zM-174 503q0 9 -7.5 15.5t-17.5 6.5t-17.5 -6.5t-7.5 -15.5t7.5 -15.5t17.5 -6.5t17.5 6.5
t7.5 15.5z" />
    <glyph glyph-name="uni0E4E_1" 
d="M-49 649q-56 2 -102 -9q-44 -11 -44 -27q0 -11 14.5 -15.5t29.5 -3.5h15v-46q-52 4 -86 -7q-18 -6 -29 -15t-8 -19q3 -11 31 -7t49 18l26 -44l-16 -8t-36.5 -11.5t-48.5 -4.5q-30 4 -47.5 19.5t-18.5 35.5t12 37.5t34 26.5q16 8 31 11q-14 12 -14 33q0 19 18.5 40
t46.5 31q22 9 57.5 13t60.5 4h25v-52z" />
    <glyph glyph-name="F881" 
 />
    <glyph glyph-name="maiekrochula" 
d="M-150 465h-86v105h86v-105z" />
    <glyph glyph-name="maieksarauee_1" 
d="M-74 585h-86v85h86v-85z" />
    <glyph glyph-name="maieksarauee_2" 
d="M-200 585h-86v85h86v-85z" />
    <glyph glyph-name="saraisp" 
d="M-145 465h-285v54h285v-54z" />
    <glyph glyph-name="saraiisp" 
d="M-145 465h-285v54h199v51h86v-105z" />
    <glyph glyph-name="maieknonu" 
 />
    </font>
</defs>
</svg>
